<?xml version="1.0" standalone="no"?>
<!DOCTYPE svg PUBLIC "-//W3C//DTD SVG 1.1//EN" "http://www.w3.org/Graphics/SVG/1.1/DTD/svg11.dtd" >
<svg xmlns="http://www.w3.org/2000/svg">
<metadata>
This is a custom SVG webfont generated by Font Squirrel.
Copyright   : Created by Raph Levien using his own tools and FontForge Copyright 2006 Raph Levien Released under the SIL Open Font License httpscriptssilorgOFL
</metadata>
<defs>
<font id="InconsolataMedium" horiz-adv-x="1024" >
<font-face units-per-em="2048" ascent="1679" descent="-369" />
<missing-glyph horiz-adv-x="500" />
<glyph unicode=" " />
<glyph unicode="!" d="M369 97q0 50 35.5 86t86 36t86 -36t35.5 -86t-35.5 -85t-86 -35t-86 35t-35.5 85zM389 1214q0 53 14 89q27 66 91 65q31 0 58.5 -22.5t39.5 -65.5q6 -31 6 -84q0 -45 -8 -127t-10 -106l-37 -566h-103l-30 566q-4 70 -12.5 144t-8.5 107z" />
<glyph unicode="&#x22;" d="M227 870l45 140q20 61 21 112q0 23 -7 66t-7 63q0 57 26.5 85t61 28t63.5 -30.5t29 -94.5q0 -72 -68 -260l-49 -135zM582 870l45 140q18 61 18 112q0 23 -6 66t-6 63q0 57 26.5 85t61.5 28t63.5 -30.5t28.5 -94.5q0 -72 -70 -260l-49 -135z" />
<glyph unicode="#" d="M51 387l8 94l203 4l41 349l-223 -3l6 97l227 2l41 348l125 6l-43 -352l226 2l40 334l127 4l-41 -336l187 2l-12 -98l-187 -2l-43 -344l203 4l-10 -97l-203 -4l-45 -368l-125 -9l45 375l-227 -2l-43 -364l-121 -6l43 368zM383 487l225 5l43 344l-227 -2z" />
<glyph unicode="$" d="M123 193l88 122q8 -6 8 -20t6 -23q102 -109 256 -125v451q-66 20 -112 43q-207 98 -207 272q0 111 89 195t230 102v123h131q2 -4 2 -8q0 -6 -7 -15.5t-7 -19.5v-78q190 -20 305 -157l-88 -111q-10 2 -10 14l-2 17q-2 4 -10 12q-70 84 -195 105v-396q92 -31 137 -49 q205 -88 205 -276q0 -119 -89 -217.5t-253 -120.5v-129h-119v125q-221 14 -358 164zM297 930q0 -92 113 -158q29 -16 71 -33v355q-90 -10 -137 -57.5t-47 -106.5zM600 152q96 18 152.5 78.5t56.5 131.5q0 100 -102 156q-35 18 -107 41v-407z" />
<glyph unicode="%" d="M57 1032.5q0 114.5 68 190t162 75.5t161.5 -76.5t67.5 -193.5q0 -113 -66.5 -188.5t-160.5 -75.5q-96 0 -164 77t-68 191.5zM94 0l707 1276h137l-713 -1276h-131zM182 1038q0 -92 33 -129t72 -37t69.5 36t30.5 116q0 96 -32.5 132t-71.5 36q-37 0 -69 -36t-32 -118z M530 244q0 115 68 190.5t162 75.5t160.5 -76t66.5 -188q0 -115 -66.5 -190.5t-160.5 -75.5t-162 75.5t-68 188.5zM651 244q0 -82 34 -122t75 -40t73.5 38t32.5 120q0 88 -33.5 127t-74.5 39t-74 -38t-33 -124z" />
<glyph unicode="&#x26;" d="M74 299q0 119 70.5 228.5t187.5 174.5q-145 174 -146 318q0 115 82 191.5t201 76.5q117 0 195.5 -77.5t78.5 -194.5q0 -100 -60 -193.5t-161 -146.5l230 -322q63 74 92 166q2 8 2 17q0 4 -1 11t-1 13q0 12 8 21l133 -93q-70 -125 -156 -237l144 -186l-121 -91l-113 181 q-63 -80 -154 -128t-192 -48q-137 0 -228 91t-91 228zM229 313q0 -88 53.5 -145t133.5 -57q123 0 239 131l9 10l-261 354q-82 -51 -128 -131t-46 -162zM328 1018q0 -98 125 -254q72 39 113.5 105.5t41.5 136.5q0 72 -42 116.5t-99 44.5t-98 -41.5t-41 -107.5z" />
<glyph unicode="'" d="M422 870l45 140q20 61 20 112q0 23 -7 66t-7 63q0 57 26.5 85t61.5 28t63.5 -30.5t28.5 -94.5q0 -72 -67 -260l-51 -135z" />
<glyph unicode="(" d="M285 528.5q0 280.5 139 506t379 329.5l61 -125q-8 -4 -16 -4q-4 0 -11.5 1t-11.5 1q-6 0 -18 -6q-178 -106 -279.5 -290.5t-101.5 -403.5q0 -242 119 -452t325 -331l-65 -108q-244 127 -382 364.5t-138 518z" />
<glyph unicode=")" d="M147 -233q209 111 331 310t122 431q0 227 -119 422.5t-321 304.5l39 127q250 -115 398 -345.5t148 -502.5q0 -276 -151.5 -513t-407.5 -357z" />
<glyph unicode="*" d="M84 723l53 133l332 -156l-33 363h166q-2 -12 -6 -27.5t-6 -27.5l-31 -308l326 148l53 -125l-350 -107l258 -309l-113 -88l-221 340l-229 -342l-111 90l266 307z" />
<glyph unicode="+" d="M92 596v125h363v350h129v-350h350v-125h-350v-383h-129v383h-363z" />
<glyph unicode="," d="M338 -283q57 53 102 127q31 49 31 86q0 41 -47 72q-57 39 -57 92q0 47 33.5 82t82.5 35q57 0 100.5 -47t43.5 -123q0 -164 -219 -385z" />
<glyph unicode="-" d="M145 575v138h738v-138h-738z" />
<glyph unicode="." d="M367 94q0 49 35.5 84t86 35t86 -35t35.5 -84t-35.5 -83t-86 -34t-86 34t-35.5 83z" />
<glyph unicode="/" d="M131 -27l641 1389l123 -64l-643 -1384z" />
<glyph unicode="0" d="M102 629q0 291 125 473t287 182q76 0 147.5 -44t130 -125t94.5 -211t36 -287.5t-37 -283.5t-96.5 -202t-129 -115t-143.5 -39q-162 0 -288 178.5t-126 473.5zM236 653q0 -131 28 -241l451 581q-41 82 -94.5 124t-108.5 42q-104 0 -190 -138.5t-86 -367.5zM311 283 q43 -84 98.5 -129t112.5 -45q45 0 89 27.5t85 82.5t66.5 154.5t25.5 226.5q0 141 -26 256z" />
<glyph unicode="1" d="M186 1106l328 172h96v-1167h230v-113h-602v113h235v989l-252 -74z" />
<glyph unicode="2" d="M150 0v90q76 150 163.5 258.5t206.5 216.5q45 39 61.5 54.5t56.5 58.5t57.5 72.5t33.5 75.5t16 89q0 102 -71.5 173t-173.5 71q-76 0 -133.5 -37t-85.5 -80q-4 -8 -7.5 -23t-9.5 -24l-104 82q55 96 151.5 151.5t204.5 55.5q156 0 263.5 -104.5t107.5 -253.5 q0 -63 -20.5 -125t-58.5 -114t-69.5 -86t-77.5 -77q-6 -6 -40.5 -37.5t-50.5 -47.5l-49 -48q-34 -33 -55 -58l-50 -61q-29 -35 -54.5 -71.5t-46.5 -75.5h535q12 0 22 8q14 14 27 10v-143h-749z" />
<glyph unicode="3" d="M141 123l109 129q8 -8 12 -27.5t14 -29.5q10 -12 29 -27.5t68 -37t102 -21.5q111 0 184.5 76.5t73.5 183.5q0 113 -84 177t-217 64q-33 0 -63 -4v115q127 0 200 33q63 29 99.5 84t36.5 116q0 82 -62.5 140.5t-159.5 58.5q-129 0 -219 -98l-80 88q125 137 305 137 q150 0 251.5 -95t101.5 -229q0 -92 -52.5 -167.5t-138.5 -108.5q98 -35 158.5 -125t60.5 -205q0 -154 -108.5 -263.5t-284.5 -109.5q-205 1 -336 146z" />
<glyph unicode="4" d="M98 354v105l543 819h121v-799h164v-127h-164v-352h-150v354h-514zM240 479h374v572z" />
<glyph unicode="5" d="M131 174l127 94q10 -6 11 -24.5t3 -22.5q8 -14 33 -37.5t82 -52.5t121 -29q109 0 183.5 81t74.5 223q0 145 -77 225t-185 80q-66 0 -129.5 -32t-110.5 -89l-90 37l43 649h647v-129h-526l-21 -367q100 49 209 49q166 0 275.5 -113.5t109.5 -312.5q0 -201 -114.5 -313.5 t-286.5 -112.5q-115 0 -215.5 51.5t-163.5 145.5z" />
<glyph unicode="6" d="M137 582q0 238 56 391q55 160 163.5 238.5t231.5 78.5q162 0 280 -116l-100 -109q-10 6 -17.5 23.5t-13.5 21.5q-6 8 -22.5 18.5t-52 22.5t-72.5 12q-35 0 -69 -8t-79 -40t-77.5 -82t-58 -144t-27.5 -219q43 72 115.5 112.5t154.5 40.5q143 0 246.5 -113.5t103.5 -304 t-106.5 -308t-257.5 -117.5q-86 0 -166 43t-136 124q-96 148 -96 435zM287 526q-2 -25 -2 -48q0 -145 64 -250q75 -122 192 -122q90 0 154.5 76t64.5 217q0 152 -67.5 225.5t-155.5 73.5q-72 0 -139.5 -47t-110.5 -125z" />
<glyph unicode="7" d="M162 1141v135h723v-80q-131 -295 -244 -598q-109 -297 -203 -598h-162q115 344 246 682q88 231 185 459h-545z" />
<glyph unicode="8" d="M123 322q0 109 70.5 206t185.5 150q-88 45 -141.5 126t-53.5 173q0 131 99.5 223t244.5 92q141 0 236.5 -88t95.5 -215q0 -92 -55 -175t-148 -132q111 -51 178.5 -146.5t67.5 -205.5q0 -147 -112.5 -248.5t-278.5 -101.5t-277.5 99.5t-111.5 242.5zM270 340 q0 -96 72 -163.5t176 -67.5q100 0 170 64.5t70 157.5t-74 172t-199 118q-92 -39 -153.5 -116t-61.5 -165zM322 989q0 -47 23.5 -91t56 -72.5t65.5 -50t55 -32.5l25 -10q76 41 125 108.5t49 139.5q0 80 -58.5 135t-144.5 55q-84 0 -140 -53t-56 -129z" />
<glyph unicode="9" d="M139 866q0 182 107.5 302t259.5 120q109 0 204 -69.5t142 -206.5q43 -129 43 -357q0 -236 -53 -379q-55 -147 -164 -221.5t-234 -74.5q-164 0 -282 116l100 109q10 -6 17.5 -24.5t15.5 -24.5q59 -47 154 -47q76 0 145.5 43t105.5 133q47 109 54 315q-45 -63 -115 -100 t-150 -37q-143 0 -246.5 112.5t-103.5 290.5zM279 872q0 -135 66.5 -209.5t158.5 -74.5q70 0 134 42t107 113q3 34 3 67q0 141 -59 236q-73 116 -187 115q-92 0 -157.5 -78t-65.5 -211z" />
<glyph unicode=":" d="M367 94q0 49 35.5 84t86 35t86 -35t35.5 -84t-35.5 -83t-86 -34t-86 34t-35.5 83zM367 748.5q0 48.5 35.5 83t86 34.5t86 -34.5t35.5 -83t-35.5 -83t-86 -34.5t-86 34.5t-35.5 83z" />
<glyph unicode=";" d="M338 -283q57 53 102 127q31 49 31 86q0 41 -47 72q-57 39 -57 92q0 47 33.5 82t82.5 35q57 0 100.5 -47t43.5 -123q0 -164 -219 -385zM367 748.5q0 48.5 35.5 83t86 34.5t86 -34.5t35.5 -83t-35.5 -83t-86 -34.5t-86 34.5t-35.5 83z" />
<glyph unicode="&#x3c;" d="M72 606l872 -510v156l-717 401l711 363v145l-866 -456v-99z" />
<glyph unicode="=" d="M92 348v125h842v-125h-842zM92 772v125h842v-125h-842z" />
<glyph unicode="&#x3e;" d="M82 96v156l715 401l-711 363v145l868 -456v-99z" />
<glyph unicode="?" d="M131 1149q66 100 172.5 156.5t222.5 56.5q166 0 264.5 -105.5t98.5 -255.5q0 -55 -12.5 -100t-41 -84t-46 -57.5t-57.5 -51t-46 -36.5q-57 -51 -72.5 -97.5t-15.5 -111.5v-84h-135v84q0 82 17.5 139t78.5 125l40 41q32 33 47.5 51.5t38 52t32.5 68.5t10 72 q0 92 -61.5 154.5t-153.5 62.5q-78 0 -153.5 -48t-122.5 -130zM414 91q0 48 34.5 83t86 35t86 -35t34.5 -83t-34.5 -83t-86 -35t-86 35t-34.5 83z" />
<glyph unicode="@" d="M63 643q0 166 45.5 296t118 206t156.5 113.5t172 37.5q115 0 209 -60t143 -167q45 -102 45 -295v-416h-123v78q-80 -94 -204 -94q-111 0 -189 78t-78 188q0 86 51.5 160t143.5 111q82 31 240 30h30q0 115 -79.5 196t-194.5 81q-68 0 -132.5 -33t-117.5 -96.5t-85 -169 t-32 -238.5q0 -143 39 -253.5t103.5 -174t139.5 -95.5t152 -32q119 0 220 68l55 -101q-131 -84 -287 -84q-100 0 -193.5 38t-172 115t-127 210t-48.5 303zM485 614q0 -68 47.5 -113.5t114.5 -45.5q47 0 88 23.5t64 68.5q14 29 21 72t8 66.5t1 82.5v39h-34q-158 0 -228 -47 q-82 -56 -82 -146z" />
<glyph unicode="A" d="M31 -2l450 1300h17l491 -1298h-147l-142 373h-405l-123 -375h-141zM324 483h344l-181 488z" />
<glyph unicode="B" d="M98 0v1276h363q158 0 239 -35q88 -39 136.5 -113.5t48.5 -162.5q0 -92 -51.5 -169t-137.5 -112q106 -37 173 -128t67 -202q0 -102 -56.5 -187t-156.5 -128q-90 -39 -264 -39h-361zM240 125h243q109 0 166 27q63 29 99 87t36 130q0 70 -37.5 132t-105.5 95q-68 31 -192 31 h-209v-502zM240 1155v-407h200q117 0 176.5 25.5t92 73.5t32.5 103q0 57 -33.5 106.5t-95.5 73.5q-57 25 -170 25h-202z" />
<glyph unicode="C" d="M84 631q0 147 31.5 264t81 188.5t116 118.5t129 65.5t127.5 18.5q127 0 232.5 -68.5t159.5 -183.5l-138 -67q-8 6 -8 20v7v7q0 10 -6 23q-41 68 -106.5 107.5t-139.5 39.5q-141 0 -240.5 -142t-99.5 -386q0 -248 102.5 -394.5t249.5 -146.5q76 0 147 42t114 114l106 -70 q-59 -98 -159.5 -153t-215.5 -55q-66 0 -131 19t-129.5 67.5t-114 121t-79 187.5t-29.5 256z" />
<glyph unicode="D" d="M111 -2v1278h297q98 0 165.5 -13.5t131.5 -54.5q121 -78 179 -227.5t58 -339.5q0 -211 -72.5 -366.5t-210.5 -225.5q-100 -51 -276 -51h-272zM246 111h131q76 0 130 11t107 46q184 125 185 453q0 332 -160 462q-53 45 -108.5 58.5t-131.5 13.5h-153v-1044z" />
<glyph unicode="E" d="M121 0v1278h782v-127h-647v-420h535v-131h-535v-473h641v-127h-776z" />
<glyph unicode="F" d="M160 0v1278h735v-125h-592v-401h477v-125h-477v-627h-143z" />
<glyph unicode="G" d="M74 623q0 160 35.5 283.5t89 193t123 115t129 59.5t116.5 14q119 0 217.5 -57.5t153.5 -155.5l-100 -102q-12 8 -27 39q-31 68 -96.5 109.5t-147.5 41.5q-86 0 -162.5 -47t-123.5 -135q-66 -121 -66 -328q0 -297 123 -436q96 -111 242 -111q121 0 229 78v303h-231v125 h364v-499q-180 -133 -375 -133q-70 0 -137.5 20t-133 68.5t-113.5 119t-78.5 183.5t-30.5 252z" />
<glyph unicode="H" d="M111 0v1276h159q2 -4 2 -10t-6 -16.5t-6 -22.5v-498h500v547h155q2 -4 3 -8q0 -8 -7.5 -17.5t-7.5 -19.5v-1233h-145v610h-498v-608h-149z" />
<glyph unicode="I" d="M166 -2v121h252v1036h-238v121h633v-121h-252v-1038h264v-119h-659z" />
<glyph unicode="J" d="M100 119l97 117q6 -6 7 -19.5t5 -17.5q8 -10 27.5 -28.5t67.5 -42.5t97 -24q96 0 150 80q23 33 34 81t12 76t1 85v729h-246v121h584v-121h-197v-727q0 -61 -2 -97t-13 -88.5t-36 -95.5q-43 -82 -119.5 -126t-169.5 -44q-86 0 -164 37t-135 105z" />
<glyph unicode="K" d="M86 0v1278h172q2 -12 -12 -29q-6 -10 -6 -24v-537l532 598q41 -10 107 -10h53l-483 -551l516 -727l-183 -6l-442 647l-100 -111v-528h-154z" />
<glyph unicode="L" d="M135 -2v1278h168q2 -14 -8 -32.5t-10 -37.5v-1083h614v-125h-764z" />
<glyph unicode="M" d="M84 -2v1278h113l315 -625l322 627h108v-1280h-135v965l-277 -514h-55l-258 507v-958h-133z" />
<glyph unicode="N" d="M102 0v1276h140l536 -946v948h152q2 -12 -6.5 -26.5t-8.5 -28.5v-1225h-112l-563 1006v-1004h-138z" />
<glyph unicode="O" d="M59 640q0 144 30 260t77 186.5t109.5 118.5t123 66.5t121.5 18.5q109 0 208 -61.5t159 -177.5q78 -154 78 -416q0 -254 -76 -408q-59 -123 -158.5 -185t-210.5 -62q-61 0 -122.5 20t-123 69.5t-108.5 122t-77 188.5t-30 260zM201 659q0 -145 29.5 -254.5t77.5 -169 t101.5 -87t110.5 -27.5q72 0 137.5 42t106.5 130q57 121 57 323q0 215 -49 338q-41 102 -111.5 151.5t-146.5 49.5q-55 0 -106.5 -24.5t-99.5 -79t-77.5 -156t-29.5 -236.5z" />
<glyph unicode="P" d="M121 0v1276h389q156 0 240 -43q88 -45 136 -131t48 -185.5t-47 -183.5t-133 -129q-82 -41 -234 -41h-252v-563h-147zM266 690h258q96 0 150 25q53 29 82.5 81t29.5 113q0 66 -31.5 121t-88.5 84q-55 27 -156 27h-242z" />
<glyph unicode="Q" d="M59 639q0 145 31 261t77 186.5t108.5 118.5t123 66.5t121.5 18.5q109 0 208 -62.5t161 -180.5q76 -152 76 -414q0 -254 -76 -408q-51 -100 -130 -160.5t-171 -78.5q4 -68 34.5 -111t116.5 -43q25 0 81.5 5t84.5 5l-4 -139h-80h-75q-22 0 -56.5 3t-58 10.5t-45.5 17.5 q-125 63 -123 252q-76 10 -142.5 51t-128 114.5t-97.5 199.5t-36 288zM199 662q0 -145 29.5 -256t76.5 -172.5t102.5 -91t114.5 -29.5q37 0 74 11t80 45t75.5 86t54 145.5t21.5 215.5q0 211 -51 340q-43 104 -114.5 153.5t-147.5 49.5q-57 0 -109.5 -26.5t-99.5 -81 t-76.5 -155.5t-29.5 -234z" />
<glyph unicode="R" d="M115 0v1276h377q160 0 243 -43q86 -43 133 -126t47 -181q0 -127 -71.5 -226.5t-188.5 -130.5l295 -569h-159l-283 563h-248v-563h-145zM260 690h248q96 0 147 25q55 29 84 81t29 113q0 66 -30.5 121t-90.5 84q-53 27 -155 27h-232v-451z" />
<glyph unicode="S" d="M106 143l84 148q10 -6 10.5 -20.5t6.5 -22.5q47 -59 127 -99t176 -40q131 0 206 69.5t75 161.5q0 109 -109 176q-37 23 -184.5 83t-212.5 108q-137 100 -138 249q0 133 111 230.5t279 97.5q104 0 196 -42t158 -118l-90 -123q-10 4 -11.5 17.5t-5.5 19.5q-39 57 -106.5 92 t-151.5 35q-106 0 -168.5 -55t-62.5 -131q0 -115 131 -191q29 -18 185.5 -83.5t222.5 -126.5q98 -92 98 -230q0 -66 -23.5 -127t-72 -117.5t-133.5 -90t-197 -33.5q-248 -1 -400 163z" />
<glyph unicode="T" d="M63 1149v129h885v-129h-377v-1151h-145v1151h-363z" />
<glyph unicode="U" d="M102 440v836h162q2 -4 2 -10q0 -8 -14 -29q-8 -10 -8 -27v-772q0 -123 30 -188q33 -72 99.5 -112t144.5 -40q76 0 142.5 39t99.5 111q33 68 33 196v832h137v-830q0 -86 -9.5 -148t-41.5 -122q-53 -96 -150.5 -147.5t-212.5 -51.5q-117 0 -214 51.5t-150 147.5 q-31 57 -40.5 117.5t-9.5 146.5z" />
<glyph unicode="V" d="M51 1278h150l327 -981l310 979h141l-428 -1284h-66z" />
<glyph unicode="W" d="M35 1276h133l137 -862l205 768h45l207 -772l117 866h120l-202 -1284h-56l-219 842l-223 -842h-59z" />
<glyph unicode="X" d="M84 0l348 651l-342 627h154l268 -485l264 485h144l-324 -625l362 -653h-161l-283 506l-274 -506h-156z" />
<glyph unicode="Y" d="M57 1278h164l314 -621l282 619h152l-363 -772v-504h-155v504z" />
<glyph unicode="Z" d="M102 -2v100l643 1049h-618v129h788l-2 -100l-630 -1051h602q14 0 31.5 7t31.5 5v-139h-846z" />
<glyph unicode="[" d="M268 -182v1554h586v-123h-455v-1315h457v-116h-588z" />
<glyph unicode="\" d="M131 1298l121 64l643 -1389l-121 -59z" />
<glyph unicode="]" d="M170 -66h457v1315h-455v123h584v-1554h-586v116z" />
<glyph unicode="^" d="M190 752l314 524h45l276 -522l-108 -52l-199 359l-225 -359z" />
<glyph unicode="_" d="M72 -39h882v-125h-882v125z" />
<glyph unicode="`" d="M285 1323l106 51l53 -135q25 -59 58 -98q14 -18 47 -47t47 -45q33 -46 33 -81q0 -38 -29 -61q-16 -14 -39 -18q-5 -1 -11 -1q-19 0 -42 10q-31 13 -59 46q-45 55 -113 242z" />
<glyph unicode="a" d="M100 242q0 82 54.5 155.5t160.5 112.5q55 20 133 29.5t125.5 10.5t145.5 1h31v35q0 111 -31 159q-55 90 -193 91q-168 0 -268 -105l-72 94q125 131 334 131q111 0 195 -39.5t131 -115.5q45 -76 45 -221v-580h-139v102q-154 -125 -336 -125q-141 0 -228.5 78t-87.5 187z M248 252q0 -66 54 -114t142 -48q82 0 145.5 35t100.5 76q31 31 45.5 65.5t17.5 56t3 54.5v61h-35q-10 0 -73 1q-31 1 -53.5 1t-35.5 -1q-27 -1 -71 -4t-74 -11q-82 -20 -124 -68.5t-42 -103.5z" />
<glyph unicode="b" d="M123 0v1362h172q4 -10 -10 -23q-12 -8 -13 -22v-524q45 76 122 120.5t167 44.5q70 0 136.5 -29.5t120.5 -87t86 -150.5t32 -212q0 -123 -34 -221t-90 -157.5t-125 -91.5t-142 -32q-84 0 -157 39t-120 107l-51 -123h-94zM272 498q0 -141 7 -185q8 -63 34.5 -106 t64.5 -62.5t68.5 -27.5t59.5 -8q33 0 65.5 8t71.5 30.5t69.5 57.5t51 98.5t20.5 145.5q0 94 -21.5 165.5t-51 111.5t-68.5 64.5t-70.5 32.5t-62.5 8q-72 0 -129 -36.5t-84 -100.5q-25 -59 -25 -196z" />
<glyph unicode="c" d="M115 467q0 211 132 349t339 138q111 0 202 -46t148 -128l-105 -121q-10 6 -10 23.5t-3 24t-12 17.5t-29.5 30.5t-47.5 35t-67.5 27.5t-86.5 12q-131 0 -220 -95t-89 -251q0 -164 92.5 -268t229.5 -104q147 0 248 114l86 -100q-139 -147 -347 -148q-199 0 -329.5 139.5 t-130.5 350.5z" />
<glyph unicode="d" d="M92 475q0 129 36 226.5t95.5 151.5t125 81t136.5 27q96 0 168 -44.5t107 -117.5v563h158q0 -12 -13 -31q-8 -12 -8 -26l2 -1219q0 -51 10 -86h-147q-8 27 -8 70v79q-45 -78 -123 -123.5t-166 -45.5q-72 0 -136.5 29.5t-118.5 88t-86 155.5t-32 222zM236 500 q0 -109 25.5 -190t66.5 -122t84 -60t86 -19q76 0 140 48t91 130q18 61 19 170q0 141 -15 200q-27 94 -96.5 138.5t-144.5 44.5q-43 0 -85 -16.5t-82 -52.5t-64.5 -106.5t-24.5 -164.5z" />
<glyph unicode="e" d="M100 457q0 244 124 372.5t306 128.5q59 0 115.5 -17t110 -54t91.5 -103.5t54 -156.5q9 -56 9 -114q0 -33 -3 -67h-665q4 -98 36.5 -170.5t82 -108.5t98.5 -52.5t102 -16.5q147 0 242 105l82 -80q-121 -143 -336 -143q-199 0 -324 126t-125 351zM248 561h514q2 17 2 33 q0 94 -61 167q-71 85 -183 85q-41 0 -82 -14.5t-81 -45t-69.5 -89t-39.5 -136.5z" />
<glyph unicode="f" d="M129 764v117h203v92q0 156 51 237q49 80 134 122t185 42q180 0 287 -129l-67 -135q-4 0 -9.5 4t-7.5 12q0 18 -4 25q-33 47 -87 76.5t-118 29.5q-131 0 -188 -102q-35 -61 -35 -203v-71h307v-117h-307v-764h-141v764h-203z" />
<glyph unicode="g" d="M78 -131q0 111 153 207q-76 41 -75 125q0 92 106 180q-66 43 -102.5 110.5t-36.5 143.5q0 137 104.5 234.5t245.5 97.5q131 0 221 -90q102 85 232 85q14 0 28 -1l19 -121q-27 4 -55 4q-88 0 -162 -45q47 -72 47 -158q0 -131 -99.5 -226.5t-238.5 -95.5q-61 0 -119 23 q-66 -55 -65 -106q0 -45 55 -62q43 -10 133 -10q18 0 78 1q30 1 52 0.5t36 -0.5q29 -1 73 -7t78 -21q72 -29 109 -84t37 -119q0 -51 -23.5 -99t-72 -91t-135.5 -69.5t-199 -26.5q-225 0 -324.5 65.5t-99.5 155.5zM213 -96q0 -78 92 -115q78 -31 195 -31q133 0 209 41 q88 49 88 125q0 37 -27 69t-84 40q-33 6 -108 6h-91q-98 4 -157 10q-117 -63 -117 -145zM258 644q0 -85 60.5 -145.5t145.5 -60.5t145.5 60.5t60.5 145.5t-60.5 145.5t-145.5 60.5t-145.5 -60.5t-60.5 -145.5z" />
<glyph unicode="h" d="M143 0v1362h170v-6q0 -8 -12 -23q-8 -8 -8 -20v-543q55 84 138 136t173 52q82 0 148.5 -44t101.5 -121q33 -76 33 -226v-567h-146v563q0 45 -1 72t-13 67.5t-35 67.5q-51 59 -127 59q-68 0 -129 -42t-96 -87q-47 -63 -47 -161v-539h-150z" />
<glyph unicode="i" d="M205 0v119h239v698h-227v119h375v-817h219v-119h-606zM416 1238q0 44 30.5 74.5t74.5 30.5t75 -30.5t31 -74.5t-31 -74.5t-75 -30.5t-74.5 30.5t-30.5 74.5z" />
<glyph unicode="j" d="M98 -225l97 127q6 -6 10 -19.5t8 -19.5q6 -12 23.5 -29.5t62.5 -40t94 -22.5q61 0 112.5 30.5t76.5 85.5q25 53 24 150v778h-348v121h498v-870q0 -154 -43 -236q-47 -90 -135.5 -138t-192.5 -48q-181 0 -287 131zM575 1238q0 44 32 74.5t76 30.5t74.5 -30.5t30.5 -74.5 t-30.5 -74.5t-74.5 -30.5t-76 30.5t-32 74.5z" />
<glyph unicode="k" d="M135 -2v1364h168q2 -12 -10 -31q-8 -10 -8 -22v-803l469 434q43 -10 108 -10h53l-393 -371l459 -561h-14l-176 -6l-383 477l-123 -115v-356h-150z" />
<glyph unicode="l" d="M162 0v119h276v1124h-264v119h414v-1243h274v-119h-700z" />
<glyph unicode="m" d="M78 936h135v-92q33 51 84 82.5t106 31.5q61 0 107.5 -38.5t58.5 -98.5q27 61 84.5 99t124.5 38q98 0 148 -75q18 -27 26.5 -65t9.5 -63.5t1 -74.5v-16v-666h-140v666q0 106 -12 135q-23 51 -74 51q-59 0 -108 -84q-41 -66 -41 -148v-618h-137v651q0 92 -9 123 q-23 72 -88 72t-112 -88q-29 -55 -29 -133v-625h-135v936z" />
<glyph unicode="n" d="M139 936h152v-166q53 84 136 136t173 52q82 0 148.5 -44t101.5 -121q35 -76 35 -226v-567h-146v563q0 45 -2 72t-14 67.5t-35 67.5q-49 59 -127 59q-66 0 -128 -42t-97 -87q-45 -63 -45 -161v-539h-152v936z" />
<glyph unicode="o" d="M82 461q0 213 131 354t313 141q170 0 293 -131t123 -362q0 -223 -123 -355.5t-297 -132.5q-182 0 -311 138.5t-129 347.5zM238 473q0 -166 84 -268.5t200 -102.5q111 0 192 94.5t81 260.5q0 180 -84 277t-195 97q-115 0 -196.5 -97t-81.5 -261z" />
<glyph unicode="p" d="M123 -342v1278h149v-143q47 76 126 119.5t169 43.5q72 0 138.5 -28.5t121 -85t88 -150.5t33.5 -213q0 -125 -34.5 -223t-91 -158.5t-125 -91.5t-142.5 -31q-86 0 -159.5 39t-121.5 109v-465h-151zM272 510q0 -86 1 -122t7.5 -80t18.5 -72q27 -61 85 -95.5t128 -34.5 q31 0 63.5 6.5t73.5 29t72 58.5t52.5 100.5t21.5 148.5q0 96 -22.5 168.5t-53.5 112.5t-72 63.5t-71.5 30.5t-61.5 7q-72 0 -131 -36.5t-86 -100.5q-25 -57 -25 -184z" />
<glyph unicode="q" d="M86 477q0 225 121 354.5t287 129.5q174 0 258 -138q14 -20 14 -24v137h139v-1278h-147v492q-43 -78 -121 -124t-166 -46q-160 0 -272.5 138t-112.5 359zM236 498q0 -186 79.5 -287.5t188.5 -101.5q76 0 140.5 48t88.5 130q20 61 21 170q0 160 -23 223q-29 80 -95.5 120 t-137.5 40q-106 0 -184 -86t-78 -256z" />
<glyph unicode="r" d="M203 -2v938h153l-4 -180q43 96 136.5 149t199.5 53q152 0 250 -102l-68 -141q-10 8 -21 25.5t-13 21.5q-55 70 -156 69q-162 0 -262 -157q-31 -47 -46.5 -90t-17.5 -67.5t-2 -61.5v-457h-149z" />
<glyph unicode="s" d="M117 127l84 147q10 -4 9 -19t7 -22q20 -27 52 -51t99.5 -52t141.5 -28q100 0 170 42t70 106q0 76 -95 121q-39 18 -134 46.5t-115 37.5q-29 10 -45.5 17t-56.5 29.5t-63.5 45t-44 63.5t-20.5 86q0 109 100.5 185.5t260.5 76.5q215 0 348 -147l-86 -129q-10 2 -10.5 16.5 t-4.5 20.5q-37 47 -104.5 87t-155.5 40q-82 0 -139 -36t-57 -91q0 -70 92 -113q37 -18 161 -54t183 -69q137 -78 137 -213q0 -115 -104.5 -202.5t-284.5 -87.5q-235 0 -395 147z" />
<glyph unicode="t" d="M143 815l2 121h224l16 250l162 26q2 -12 1 -18t-6 -17.5t-7 -19.5l-25 -221h307v-121h-307q-18 -182 -18 -366q0 -135 6 -181q10 -78 54 -113.5t103 -35.5q94 0 209 84l45 -117q-141 -104 -299 -104q-141 0 -213 100q-25 35 -38 84t-15 82t-2 88q0 240 20 479h-219z" />
<glyph unicode="u" d="M127 414l2 522h147v-522q0 -137 35 -203q27 -53 75 -84t103 -31q66 0 124.5 40t91.5 100q37 68 36 184v516h150v-852q0 -51 10 -84h-156q-4 29 -4 72l2 71q-45 -78 -122.5 -122t-165.5 -44q-92 0 -171 50.5t-120 140.5q-37 84 -37 246z" />
<glyph unicode="v" d="M82 936h176q2 -8 -2 -21.5t-4 -17.5q0 -6 2 -12l270 -684l152 348q96 225 127 387h133q-39 -170 -141 -410l-228 -532h-114z" />
<glyph unicode="w" d="M33 936h149q4 -14 -4 -39q-6 -18 -2 -39l137 -674l160 664h90l199 -662q57 385 73.5 522.5t12.5 227.5h137q-61 -473 -156 -938h-139l-172 606l-164 -606h-133z" />
<glyph unicode="x" d="M96 0l330 475l-324 461h162l244 -346l233 346h152l-303 -455l344 -481h-168l-258 365l-244 -365h-168z" />
<glyph unicode="y" d="M45 -276l78 131q6 -6 10 -19.5t6 -13.5q4 -8 14.5 -19.5t37 -25t57.5 -13.5q74 0 131 62q33 35 65 108l29 70l-379 932h182q2 -10 -3 -24.5t-5 -20.5q0 -7 4 -17l275 -688l178 502q51 145 70 248h153q-33 -109 -92 -270l-293 -772q-37 -100 -80 -148q-90 -102 -235 -102 q-121 0 -203 80z" />
<glyph unicode="z" d="M102 -2v100l580 709h-537v129h727v-100l-569 -711h555q14 0 31.5 7t32.5 5v-139h-820z" />
<glyph unicode="{" d="M109 467v115h38q94 0 138 45q53 57 53 174q0 25 -2 73t-2 74q0 182 100 275q14 12 30.5 23t31 19.5t35 14.5t32.5 10t37 7t35 4.5t36.5 2.5t34.5 1h35h33h62v-117h-70q-14 0 -49 1t-49.5 0t-37 -3t-40 -8.5t-31.5 -16.5q-82 -51 -82 -190q0 -25 2 -72t2 -72 q0 -98 -30 -163q-47 -96 -148 -140q174 -59 174 -317q0 -33 -3 -89.5t-3 -82.5q0 -154 84 -211q8 -6 17.5 -11.5t20.5 -8.5t19.5 -6t22.5 -4t21.5 -2t24.5 -2t24 -1h26h27h76v-115h-74h-37h-37q-8 0 -33.5 1t-35 2t-31 3.5t-32.5 5.5t-29.5 7t-29.5 10l-27 14q-15 8 -28 19 q-115 88 -114 297q0 43 4 109.5t4 95.5q0 135 -53 188q-43 41 -131 41h-41z" />
<glyph unicode="|" d="M444 -309v1644h138v-1644h-138z" />
<glyph unicode="}" d="M188 1188v117h64h33h36q7 0 33.5 -1t36.5 -2.5t34 -4.5t36 -7t32.5 -10t35 -14.5t30.5 -19.5t31 -23q102 -92 102 -275q0 -27 -3 -75t-3 -72q0 -117 53 -174q45 -45 138 -45h41v-115h-44q-88 0 -129 -41q-53 -53 -53 -188q0 -29 3 -95.5t3 -109.5q0 -209 -112 -297 q-14 -10 -28.5 -18.5t-27 -14.5t-31 -10t-28.5 -7t-32 -5l-31 -4q-10 -1 -35 -2t-33 -1h-38h-38h-74v115h76h28h27q7 0 23 1t24.5 2t21.5 2t21.5 4t19.5 6t21 9l19 11q84 57 84 211q0 27 -3 83t-3 89q0 258 172 317q-98 43 -146 140q-33 66 -32 163q0 25 3 72t3 72 q0 139 -82 190q-16 10 -32.5 16.5t-40 8.5t-37 3t-48.5 0t-49 -1h-72z" />
<glyph unicode="~" d="M84 768q49 80 124 131t159 51q57 0 107 -23.5t81 -52t72 -53t80 -24.5q45 0 83.5 32.5t90.5 100.5l94 -78q-51 -76 -125 -132t-160 -56q-55 0 -104 25.5t-78 56t-69 56t-83 25.5q-92 0 -170 -127z" />
<glyph unicode="&#xa0;" />
<glyph unicode="&#xa1;" d="M369 1246q0 50 35.5 86t86 36t86 -36t35.5 -86t-35.5 -85t-86 -35t-86 35t-35.5 85zM383 147q0 45 8 128t10 106l37 567h103l30 -567q2 -68 11.5 -142.5t9.5 -107.5q0 -55 -14 -88q-29 -66 -91 -66q-33 0 -59.5 21.5t-38.5 67.5q-6 30 -6 81z" />
<glyph unicode="&#xa2;" d="M98 559q0 207 126 343t331 147l29 229l137 -14q2 -12 -7 -27.5t-12 -30.5l-20 -168q160 -31 242 -157l-90 -117q-8 6 -9 20q0 25 -8 33q-57 70 -151 98l-95 -716q156 0 269 114l73 -100q-133 -145 -344 -145h-16l-31 -230l-116 15l28 231q-154 43 -245 171t-91 304z M244 578q0 -131 56 -225.5t151 -131.5l88 709q-129 -8 -212 -102t-83 -250z" />
<glyph unicode="&#xa3;" d="M80 100q59 27 77.5 37t38 26.5t35.5 41.5q72 111 72 250q0 76 -31 202h-135v117h107q-14 74 -15 131q0 166 105.5 268.5t255.5 102.5q152 0 266 -105l-90 -112q-10 6 -16.5 21.5t-12.5 19.5q-6 8 -22.5 20.5t-53 25.5t-75.5 13q-90 0 -154.5 -65.5t-64.5 -186.5 q0 -55 16 -133h205v-117h-176q27 -119 26 -198q0 -154 -73 -275q27 4 55 4q70 0 175 -42t163 -42q84 0 151 58l54 -107q-106 -86 -213 -86q-63 0 -176 46t-189 46q-106 0 -252 -77z" />
<glyph unicode="&#xa4;" d="M139 408l115 116q-57 82 -57 183q0 102 59 184l-117 117l74 71l115 -114q84 59 186 59q100 0 182 -57l115 112l74 -71l-115 -113q61 -84 61 -188q0 -102 -59 -187l113 -112l-74 -72l-113 113q-82 -59 -184 -60q-104 0 -188 62l-113 -115zM307 708q0 -85 60.5 -145.5 t145.5 -60.5t145.5 60.5t60.5 145.5t-60.5 145t-145.5 60t-145.5 -60t-60.5 -145z" />
<glyph unicode="&#xa5;" d="M74 1278h159l297 -535l273 533h151l-356 -672v-43h274v-117h-274v-129h274v-114h-274v-201h-139v201h-287v114h287v129h-287v117h287v43z" />
<glyph unicode="&#xa6;" d="M444 -309v710h138v-710h-138zM444 604v731h138v-731h-138z" />
<glyph unicode="&#xa7;" d="M133 63l107 125q8 -2 11 -8t4 -15t3 -11q4 -10 17.5 -27.5t40 -42.5t72.5 -42t99 -17q92 0 147.5 47t55.5 114q0 88 -94 146q-41 23 -145.5 54.5t-157.5 62.5q-131 78 -131 198q0 68 46 124t122 83q-137 84 -137 231q0 119 96 205t237 86q100 0 185.5 -49t134.5 -133 l-117 -102q-6 6 -9 13t-4 16.5t-1 13.5q-16 43 -65.5 81.5t-123.5 38.5q-78 0 -131 -46t-53 -111q0 -96 109 -154q29 -14 102.5 -40.5t114.5 -45.5q188 -90 188 -233q0 -61 -42 -115.5t-109 -81.5q131 -90 131 -238q0 -125 -98.5 -213t-250.5 -88q-102 0 -196.5 45 t-157.5 129zM311 688q0 -96 111 -151q33 -16 102.5 -36t104.5 -34q74 39 73 123q0 102 -118 162q-29 14 -92.5 34.5t-88.5 30.5q-41 -14 -66.5 -49t-25.5 -80z" />
<glyph unicode="&#xa8;" d="M229 1257q0 43 31 74t74 31t72.5 -31t29.5 -74t-29.5 -72.5t-72.5 -29.5t-74 29.5t-31 72.5zM596 1257q0 43 29.5 74t72.5 31t73 -31t30 -74t-30 -72.5t-73 -29.5t-72.5 29.5t-29.5 72.5z" />
<glyph unicode="&#xa9;" d="M29 561q0 219 145 371.5t350 152.5t350.5 -152.5t145.5 -369.5q0 -219 -146.5 -371.5t-350.5 -152.5t-349 152.5t-145 369.5zM121 561q0 -182 119.5 -308t285.5 -126t286 127t120 309t-119 309t-286 127t-286.5 -127t-119.5 -311zM236 565q0 129 88 216t213 87 q94 0 164.5 -53t91.5 -137l-107 -39q-6 8 -7 23.5t-1 17.5q-4 12 -14.5 29.5t-44 37t-78.5 19.5q-78 0 -134.5 -49t-56.5 -139q0 -92 56.5 -157t136.5 -65q49 0 90 25t63 68l90 -60q-43 -66 -110.5 -102.5t-140.5 -36.5q-125 0 -212 93t-87 222z" />
<glyph unicode="&#xaa;" d="M156 311v111h714v-111h-714zM209 741q0 53 30.5 104.5t90.5 84.5q16 8 31.5 14t34 11.5t31.5 8.5t36 5l34 3q11 1 36.5 1t32.5 1t36 1h35h29v24q0 70 -23 105q-39 61 -129 61q-127 0 -192 -90l-70 84q100 115 274 115q86 0 151.5 -34t96.5 -99q23 -51 23 -148v-446h-129 v67q-94 -88 -217 -88q-104 0 -173 63.5t-69 151.5zM340 745q0 -43 36 -75.5t93 -32.5q88 0 158 65q29 27 37 55.5t8 73.5v37h-33q-143 0 -176 -6q-63 -10 -93 -44t-30 -73z" />
<glyph unicode="&#xab;" d="M137 471v47l312 301l79 -84l-247 -241l262 -287l-82 -82zM510 471v47l309 301l80 -84l-248 -241l262 -287l-82 -82z" />
<glyph unicode="&#xac;" d="M186 582v129h662v-389h-131v260h-531z" />
<glyph unicode="&#xad;" d="M145 575v138h738v-138h-738z" />
<glyph unicode="&#xae;" d="M29 561q0 219 145 371.5t350 152.5t350.5 -152.5t145.5 -369.5q0 -219 -146.5 -371.5t-350.5 -152.5t-349 152.5t-145 369.5zM121 561q0 -182 119.5 -308t285.5 -126t286 127t120 309t-119 309t-286 127t-286.5 -127t-119.5 -311zM317 272v598h193q94 0 141 -20 q51 -23 79 -64t28 -90q0 -55 -33 -99t-86 -58l131 -256l-96 -15l-127 256h-135v-252h-95zM412 606h106q74 0 107 21q39 25 39 69q0 47 -46 72q-33 18 -106 18h-100v-180z" />
<glyph unicode="&#xaf;" d="M252 1157v115h520v-115h-520z" />
<glyph unicode="&#xb0;" d="M248 1033.5q0 113.5 81 194.5t195.5 81t195.5 -81t81 -194.5t-81 -194.5t-195.5 -81t-195.5 81t-81 194.5zM373 1035.5q0 -68.5 45 -117t107.5 -48.5t107.5 48.5t45 117.5q0 68 -44 116t-107.5 48t-108.5 -48t-45 -116.5z" />
<glyph unicode="&#xb1;" d="M92 702v125h363v351h129v-351h350v-125h-350v-385h-129v385h-363zM94 35v129h842v-129h-842z" />
<glyph unicode="&#xb2;" d="M227 1135q47 80 127 125t174 45q121 0 198 -67t77 -163q0 -102 -96 -190q-23 -20 -132.5 -100t-177.5 -156h373q12 0 23 8q14 14 26 10v-129h-571v90q39 55 92 109.5t87 83t88 69.5t58 45q104 86 105 160q0 51 -41 88t-113 37q-55 0 -103 -24.5t-77 -61.5 q-6 -8 -11 -21.5t-9 -21.5z" />
<glyph unicode="&#xb3;" d="M229 647l97 107q8 -10 13 -29.5t15 -28.5q68 -68 170 -67q74 0 127.5 39t53.5 94q0 16 -7.5 33.5t-24 37t-55 30.5t-94.5 11q-31 0 -61 -4v105q20 -2 41 -2q92 0 131 30.5t39 73.5q0 47 -43 84t-109 37q-115 0 -192 -94l-74 76q109 127 272 127q113 0 191 -65.5 t78 -156.5q0 -55 -33 -99t-84 -60q66 -10 108.5 -60.5t42.5 -115.5q0 -98 -93 -167t-216 -69q-176 0 -293 133z" />
<glyph unicode="&#xb4;" d="M418 1130l180 302l129 -86l-207 -277z" />
<glyph unicode="&#xb5;" d="M49 -342q2 113 21.5 367t19.5 389v522h135v-555q0 -117 29 -178q29 -55 74 -85t94 -30q55 0 105.5 36t77 97.5t26.5 171.5v543h131v-698q0 -70 16 -101q25 -41 66 -41q31 0 58.5 25.5t41.5 50.5l12 25l56 -105q-76 -113 -181 -112q-66 0 -112.5 46t-54.5 111 q-37 -74 -104.5 -117t-147.5 -43q-76 0 -138.5 39t-95.5 107q0 -231 -2 -465h-127z" />
<glyph unicode="&#xb6;" d="M131 1016q0 96 55.5 178t153.5 125q100 43 297 43h256v-1501h-119v1384h-156v-1384h-120v798q-156 10 -261.5 114t-105.5 243z" />
<glyph unicode="&#xb7;" d="M367 678q0 49 35.5 83t86 34t86 -34t35.5 -83t-35.5 -83t-86 -34t-86 34t-35.5 83z" />
<glyph unicode="&#xb8;" d="M322 -287l51 86q90 -74 202 -73q53 0 74 15t21 35.5t-22.5 35t-74.5 14.5h-61l23 174h90l-13 -96l35 -2q51 -4 80 -17q59 -29 59 -96q0 -59 -58 -105t-163 -46q-134 -1 -243 75z" />
<glyph unicode="&#xb9;" d="M252 1147l270 149h88v-667h191v-111h-522v111h204v504l-196 -50z" />
<glyph unicode="&#xba;" d="M156 311v111h714v-111h-714zM197 885q0 172 93 280.5t226 108.5q121 0 209 -95.5t88 -269.5q0 -184 -93 -284.5t-216 -100.5q-127 0 -217 99.5t-90 261.5zM319 895q0 -121 55.5 -186.5t131.5 -65.5q74 0 129 64.5t55 187.5q0 125 -54 194.5t-130 69.5t-131.5 -69.5 t-55.5 -194.5z" />
<glyph unicode="&#xbb;" d="M137 207l262 287l-247 241l79 84l312 -301v-47l-324 -346zM510 207l260 287l-248 241l80 84l311 -301v-47l-323 -346z" />
<glyph unicode="&#xbc;" d="M12 1268l217 118h70v-532h152v-88h-418v88h164v403l-158 -38zM156 -33l641 1395l98 -55l-643 -1393zM483 16v60l328 420h63v-404h103v-76h-103v-159h-94v159h-297zM590 92h192v244z" />
<glyph unicode="&#xbd;" d="M12 1268l217 118h70v-532h152v-88h-418v88h164v403l-158 -38zM156 -33l641 1395l98 -55l-643 -1393zM539 344q37 63 101.5 100t137.5 37q96 0 157.5 -54t61.5 -130q0 -82 -75 -152q-18 -16 -106.5 -80.5t-141.5 -123.5h299q8 0 16 6q12 10 23 8v-105h-459v72q33 45 76 88 t69.5 66.5t69.5 56.5t47 35q84 70 84 129q0 41 -34 70.5t-89 29.5q-92 0 -145 -69q-6 -6 -9.5 -17.5t-7.5 -17.5z" />
<glyph unicode="&#xbe;" d="M23 872l77 86q6 -8 10.5 -23t12.5 -24q53 -53 135 -53q59 0 102 32t43 75q0 14 -6 27.5t-19 28.5t-44 24.5t-76 9.5q-25 0 -49 -2v82q16 -2 33 -2q74 0 105.5 25.5t31.5 58.5q0 39 -35 68.5t-88 29.5q-92 0 -152 -78l-59 61q86 102 217 103q90 0 151.5 -52.5t61.5 -123.5 q0 -45 -25.5 -80t-66.5 -49q53 -8 87 -48t34 -92q0 -80 -74 -135t-174 -55q-139 0 -233 106zM166 -33l641 1395l98 -55l-643 -1393zM483 16v60l328 420h63v-404h103v-76h-103v-159h-94v159h-297zM590 92h192v244z" />
<glyph unicode="&#xbf;" d="M137 334q0 55 13.5 101t42 84t46 57.5t57.5 52.5t44 37q57 51 73.5 96t16.5 110v86h133v-86q0 -82 -16.5 -138t-79.5 -124q-6 -8 -39 -40.5t-48 -52t-38 -52.5t-33 -68t-10 -73q0 -90 62.5 -154t154.5 -64q78 0 152.5 48.5t124.5 130.5l104 -99q-66 -100 -172.5 -156.5 t-222.5 -56.5q-168 0 -266.5 105.5t-98.5 255.5zM371 1245q0 49 35.5 83t86 34t86 -34t35.5 -83t-35.5 -83t-86 -34t-86 34t-35.5 83z" />
<glyph unicode="&#xc0;" d="M31 -2l450 1300h17l491 -1298h-147l-142 373h-405l-123 -375h-141zM291 1477l80 143l313 -182l-47 -86zM324 483h344l-181 488z" />
<glyph unicode="&#xc1;" d="M31 -2l450 1300h17l491 -1298h-147l-142 373h-405l-123 -375h-141zM317 1438l314 182l82 -143l-346 -125zM324 483h344l-181 488z" />
<glyph unicode="&#xc2;" d="M31 -2l450 1300h17l491 -1298h-147l-142 373h-405l-123 -375h-141zM209 1417l268 203h45l252 -199l-67 -78l-211 146l-230 -141zM324 483h344l-181 488z" />
<glyph unicode="&#xc3;" d="M31 -2l450 1300h17l491 -1298h-147l-142 373h-405l-123 -375h-141zM176 1464q113 178 232 178q80 0 163 -88q63 -66 103 -65q16 0 27.5 5t24.5 18.5l19.5 20.5t23.5 32l24 32l77 -81q-61 -74 -106 -110t-96 -36q-41 0 -80 24.5t-64.5 53.5t-58.5 53.5t-62 24.5 q-39 0 -65.5 -28t-69.5 -99zM324 483h344l-181 488z" />
<glyph unicode="&#xc4;" d="M31 -2l450 1300h17l491 -1298h-147l-142 373h-405l-123 -375h-141zM207 1511q0 43 30.5 74t72.5 31t73 -31t31 -74t-31 -72.5t-73 -29.5t-72.5 29.5t-30.5 72.5zM324 483h344l-181 488zM573 1511q0 43 30 74t72 31t72.5 -31t30.5 -74t-30.5 -72.5t-72.5 -29.5t-72 29.5 t-30 72.5z" />
<glyph unicode="&#xc5;" d="M31 -2l440 1270q-72 8 -120 59t-48 121q0 74 55.5 127t133 53t132 -53t54.5 -127q0 -70 -48 -122t-122 -58l481 -1268h-147l-142 373h-405l-123 -375h-141zM324 483h344l-181 488zM408 1448q0 -39 25.5 -65.5t60 -26.5t59.5 26.5t25 67.5q0 39 -25 65.5t-59.5 26.5 t-60 -26.5t-25.5 -67.5z" />
<glyph unicode="&#xc6;" d="M8 0l402 1278h581v-127h-354l2 -420h299v-131h-297l4 -473h342v-127h-471v346h-266l-111 -346h-131zM279 465h237v686h-22z" />
<glyph unicode="&#xc7;" d="M84 631q0 147 31.5 264t81 188.5t116 118.5t129 65.5t127.5 18.5q127 0 232.5 -68.5t159.5 -183.5l-138 -67q-8 6 -8 20v7v7q0 10 -6 23q-41 68 -106.5 107.5t-139.5 39.5q-141 0 -240.5 -142t-99.5 -386q0 -248 102.5 -394.5t249.5 -146.5q76 0 147 42t114 114l106 -70 q-53 -86 -137 -140t-182 -66l-11 -78l35 -2q51 -4 80 -17q59 -29 59 -96q0 -59 -58 -105t-163 -46q-135 0 -243 75l51 86q90 -74 202 -73q53 0 74 15t21 35.5t-22.5 35t-74.5 14.5h-61l20 154q-82 8 -156.5 45.5t-143 110.5t-108.5 200t-40 295z" />
<glyph unicode="&#xc8;" d="M121 0v1278h782v-127h-647v-420h535v-131h-535v-473h641v-127h-776zM291 1477l80 143l313 -182l-47 -86z" />
<glyph unicode="&#xc9;" d="M121 0v1278h782v-127h-647v-420h535v-131h-535v-473h641v-127h-776zM354 1438l312 182l82 -143l-347 -125z" />
<glyph unicode="&#xca;" d="M121 0v1278h782v-127h-647v-420h535v-131h-535v-473h641v-127h-776zM225 1417l271 203h43l254 -199l-68 -78l-213 146l-227 -141z" />
<glyph unicode="&#xcb;" d="M121 0v1278h782v-127h-647v-420h535v-131h-535v-473h641v-127h-776zM221 1511q0 43 30 74t73 31t73.5 -31t30.5 -74t-30.5 -72.5t-73.5 -29.5t-73 29.5t-30 72.5zM588 1511q0 43 29.5 74t71.5 31t73 -31t31 -74t-31 -72.5t-73 -29.5t-71.5 29.5t-29.5 72.5z" />
<glyph unicode="&#xcc;" d="M166 -2v121h252v1036h-238v121h633v-121h-252v-1038h264v-119h-659zM291 1477l80 143l313 -182l-47 -86z" />
<glyph unicode="&#xcd;" d="M166 -2v121h252v1036h-238v121h633v-121h-252v-1038h264v-119h-659zM354 1438l312 182l82 -143l-347 -125z" />
<glyph unicode="&#xce;" d="M166 -2v121h252v1036h-238v121h633v-121h-252v-1038h264v-119h-659zM207 1417l268 203h45l252 -199l-67 -78l-211 146l-230 -141z" />
<glyph unicode="&#xcf;" d="M166 -2v121h252v1036h-238v121h633v-121h-252v-1038h264v-119h-659zM213 1511q0 43 30.5 74t73.5 31t73 -31t30 -74t-30 -72.5t-73 -29.5t-73.5 29.5t-30.5 72.5zM580 1511q0 43 29.5 74t72.5 31t72.5 -31t29.5 -74t-29.5 -72.5t-72.5 -29.5t-72.5 29.5t-29.5 72.5z" />
<glyph unicode="&#xd0;" d="M61 616v119h101v541h284q94 0 161 -15.5t128 -60.5q111 -82 165 -231.5t54 -323.5q0 -211 -78.5 -376t-222.5 -232q-84 -39 -231 -39h-260v618h-101zM293 117h123q135 0 213 53q90 61 139 182t49 275q0 258 -108 405q-39 55 -93.5 85t-89 34t-88.5 4h-145v-420h215v-119 h-215v-499z" />
<glyph unicode="&#xd1;" d="M102 0v1276h140l536 -946v948h152q2 -12 -6.5 -26.5t-8.5 -28.5v-1225h-112l-563 1006v-1004h-138zM186 1464q111 178 232 178q80 0 164 -88q61 -66 102 -65q14 0 26.5 5t24.5 18l20 21q7 7 24 32l24 32l76 -81q-61 -74 -105.5 -110t-97.5 -36q-39 0 -78 24.5t-64.5 53.5 t-59.5 53.5t-62 24.5q-37 0 -63.5 -28t-72.5 -99z" />
<glyph unicode="&#xd2;" d="M59 640q0 144 30 260t77 186.5t109.5 118.5t123 66.5t121.5 18.5q109 0 208 -61.5t159 -177.5q78 -154 78 -416q0 -254 -76 -408q-59 -123 -158.5 -185t-210.5 -62q-61 0 -122.5 20t-123 69.5t-108.5 122t-77 188.5t-30 260zM201 659q0 -145 29.5 -254.5t77.5 -169 t101.5 -87t110.5 -27.5q72 0 137.5 42t106.5 130q57 121 57 323q0 215 -49 338q-41 102 -111.5 151.5t-146.5 49.5q-55 0 -106.5 -24.5t-99.5 -79t-77.5 -156t-29.5 -236.5zM291 1477l80 143l313 -182l-47 -86z" />
<glyph unicode="&#xd3;" d="M59 640q0 144 30 260t77 186.5t109.5 118.5t123 66.5t121.5 18.5q109 0 208 -61.5t159 -177.5q78 -154 78 -416q0 -254 -76 -408q-59 -123 -158.5 -185t-210.5 -62q-61 0 -122.5 20t-123 69.5t-108.5 122t-77 188.5t-30 260zM201 659q0 -145 29.5 -254.5t77.5 -169 t101.5 -87t110.5 -27.5q72 0 137.5 42t106.5 130q57 121 57 323q0 215 -49 338q-41 102 -111.5 151.5t-146.5 49.5q-55 0 -106.5 -24.5t-99.5 -79t-77.5 -156t-29.5 -236.5zM354 1438l312 182l82 -143l-347 -125z" />
<glyph unicode="&#xd4;" d="M59 640q0 144 30 260t77 186.5t109.5 118.5t123 66.5t121.5 18.5q109 0 208 -61.5t159 -177.5q78 -154 78 -416q0 -254 -76 -408q-59 -123 -158.5 -185t-210.5 -62q-61 0 -122.5 20t-123 69.5t-108.5 122t-77 188.5t-30 260zM201 659q0 -145 29.5 -254.5t77.5 -169 t101.5 -87t110.5 -27.5q72 0 137.5 42t106.5 130q57 121 57 323q0 215 -49 338q-41 102 -111.5 151.5t-146.5 49.5q-55 0 -106.5 -24.5t-99.5 -79t-77.5 -156t-29.5 -236.5zM231 1417l269 203h45l252 -199l-68 -78l-211 146l-227 -141z" />
<glyph unicode="&#xd5;" d="M59 640q0 144 30 260t77 186.5t109.5 118.5t123 66.5t121.5 18.5q109 0 208 -61.5t159 -177.5q78 -154 78 -416q0 -254 -76 -408q-59 -123 -158.5 -185t-210.5 -62q-61 0 -122.5 20t-123 69.5t-108.5 122t-77 188.5t-30 260zM186 1464q111 178 232 178q80 0 164 -88 q61 -66 102 -65q14 0 26.5 5t24.5 18l20 21q7 7 24 32l24 32l76 -81q-61 -74 -105.5 -110t-97.5 -36q-39 0 -78 24.5t-64.5 53.5t-59.5 53.5t-62 24.5q-37 0 -63.5 -28t-72.5 -99zM201 659q0 -145 29.5 -254.5t77.5 -169t101.5 -87t110.5 -27.5q72 0 137.5 42t106.5 130 q57 121 57 323q0 215 -49 338q-41 102 -111.5 151.5t-146.5 49.5q-55 0 -106.5 -24.5t-99.5 -79t-77.5 -156t-29.5 -236.5z" />
<glyph unicode="&#xd6;" d="M59 640q0 144 30 260t77 186.5t109.5 118.5t123 66.5t121.5 18.5q109 0 208 -61.5t159 -177.5q78 -154 78 -416q0 -254 -76 -408q-59 -123 -158.5 -185t-210.5 -62q-61 0 -122.5 20t-123 69.5t-108.5 122t-77 188.5t-30 260zM201 659q0 -145 29.5 -254.5t77.5 -169 t101.5 -87t110.5 -27.5q72 0 137.5 42t106.5 130q57 121 57 323q0 215 -49 338q-41 102 -111.5 151.5t-146.5 49.5q-55 0 -106.5 -24.5t-99.5 -79t-77.5 -156t-29.5 -236.5zM221 1511q0 43 30 74t73 31t73.5 -31t30.5 -74t-30.5 -72.5t-73.5 -29.5t-73 29.5t-30 72.5z M588 1511q0 43 29.5 74t71.5 31t73 -31t31 -74t-31 -72.5t-73 -29.5t-71.5 29.5t-29.5 72.5z" />
<glyph unicode="&#xd7;" d="M174 395l258 269l-258 272l96 94l254 -268l258 268l99 -90l-267 -274l260 -275l-94 -94l-260 272l-256 -264z" />
<glyph unicode="&#xd8;" d="M59 641q0 143 30 259t77 186.5t109.5 118.5t123 66.5t121.5 18.5q129 0 236 -82l94 178l111 -59l-115 -211q23 -31 41 -65q78 -154 78 -416q0 -254 -76 -408q-59 -123 -158.5 -185t-210.5 -62q-129 0 -237 81l-103 -190l-106 55l121 226q-136 176 -136 489zM201 659 q0 -225 69 -362l418 784q-76 74 -174 74q-55 0 -106.5 -24.5t-99.5 -79t-77.5 -156t-29.5 -236.5zM350 188q76 -68 170 -67q72 0 137.5 42t106.5 130q57 121 57 323q0 215 -49 338l-6 13z" />
<glyph unicode="&#xd9;" d="M102 440v836h162q2 -4 2 -10q0 -8 -14 -29q-8 -10 -8 -27v-772q0 -123 30 -188q33 -72 99.5 -112t144.5 -40q76 0 142.5 39t99.5 111q33 68 33 196v832h137v-830q0 -86 -9.5 -148t-41.5 -122q-53 -96 -150.5 -147.5t-212.5 -51.5q-117 0 -214 51.5t-150 147.5 q-31 57 -40.5 117.5t-9.5 146.5zM291 1477l80 143l313 -182l-47 -86z" />
<glyph unicode="&#xda;" d="M102 440v836h162q2 -4 2 -10q0 -8 -14 -29q-8 -10 -8 -27v-772q0 -123 30 -188q33 -72 99.5 -112t144.5 -40q76 0 142.5 39t99.5 111q33 68 33 196v832h137v-830q0 -86 -9.5 -148t-41.5 -122q-53 -96 -150.5 -147.5t-212.5 -51.5q-117 0 -214 51.5t-150 147.5 q-31 57 -40.5 117.5t-9.5 146.5zM354 1438l312 182l82 -143l-347 -125z" />
<glyph unicode="&#xdb;" d="M102 440v836h162q2 -4 2 -10q0 -8 -14 -29q-8 -10 -8 -27v-772q0 -123 30 -188q33 -72 99.5 -112t144.5 -40q76 0 142.5 39t99.5 111q33 68 33 196v832h137v-830q0 -86 -9.5 -148t-41.5 -122q-53 -96 -150.5 -147.5t-212.5 -51.5q-117 0 -214 51.5t-150 147.5 q-31 57 -40.5 117.5t-9.5 146.5zM231 1417l269 203h45l252 -199l-68 -78l-211 146l-227 -141z" />
<glyph unicode="&#xdc;" d="M102 440v836h162q2 -4 2 -10q0 -8 -14 -29q-8 -10 -8 -27v-772q0 -123 30 -188q33 -72 99.5 -112t144.5 -40q76 0 142.5 39t99.5 111q33 68 33 196v832h137v-830q0 -86 -9.5 -148t-41.5 -122q-53 -96 -150.5 -147.5t-212.5 -51.5q-117 0 -214 51.5t-150 147.5 q-31 57 -40.5 117.5t-9.5 146.5zM238 1511q0 43 30.5 74t73.5 31t72.5 -31t29.5 -74t-29.5 -72.5t-72.5 -29.5t-73.5 29.5t-30.5 72.5zM604 1511q0 43 31 74t73 31t71.5 -31t29.5 -74t-29.5 -72.5t-71.5 -29.5t-73 29.5t-31 72.5z" />
<glyph unicode="&#xdd;" d="M57 1278h164l314 -621l282 619h152l-363 -772v-504h-155v504zM354 1438l312 182l82 -143l-347 -125z" />
<glyph unicode="&#xde;" d="M121 0v1276h160q2 -4 2 -8q0 -8 -13 -27q-6 -8 -6 -22v-183h246q156 0 240 -43q88 -47 136 -132t48 -184t-47 -183t-133 -129q-82 -41 -234 -41h-256v-324h-143zM264 901v-452h260q96 0 149.5 26.5t83 79.5t29.5 115q0 66 -31.5 121t-88.5 83q-55 27 -156 27h-246z" />
<glyph unicode="&#xdf;" d="M113 866q0 184 43 283q47 104 137 162.5t196 58.5q154 0 262.5 -107.5t108.5 -252.5q0 -88 -43 -162t-119 -113q115 -35 183.5 -136t68.5 -228q0 -168 -108.5 -279.5t-266.5 -111.5q-117 0 -213 63l72 115q61 -49 139 -49q98 0 170 75.5t72 186.5q0 78 -38 145.5 t-97 104.5q-66 41 -180 41h-62v116h60q57 0 92 17q59 25 95 85t36 134q0 100 -65.5 168.5t-157.5 68.5q-115 0 -185 -102q-29 -39 -42 -92t-16 -90t-3 -97v-870h-139v866z" />
<glyph unicode="&#xe0;" d="M100 242q0 82 54.5 155.5t160.5 112.5q55 20 133 29.5t125.5 10.5t145.5 1h31v35q0 111 -31 159q-55 90 -193 91q-168 0 -268 -105l-72 94q125 131 334 131q111 0 195 -39.5t131 -115.5q45 -76 45 -221v-580h-139v102q-154 -125 -336 -125q-141 0 -228.5 78t-87.5 187z M248 252q0 -66 54 -114t142 -48q82 0 145.5 35t100.5 76q31 31 45.5 65.5t17.5 56t3 54.5v61h-35q-10 0 -73 1q-31 1 -53.5 1t-35.5 -1q-27 -1 -71 -4t-74 -11q-82 -20 -124 -68.5t-42 -103.5zM369 1346l129 86l180 -302l-103 -61z" />
<glyph unicode="&#xe1;" d="M100 242q0 82 54.5 155.5t160.5 112.5q55 20 133 29.5t125.5 10.5t145.5 1h31v35q0 111 -31 159q-55 90 -193 91q-168 0 -268 -105l-72 94q125 131 334 131q111 0 195 -39.5t131 -115.5q45 -76 45 -221v-580h-139v102q-154 -125 -336 -125q-141 0 -228.5 78t-87.5 187z M248 252q0 -66 54 -114t142 -48q82 0 145.5 35t100.5 76q31 31 45.5 65.5t17.5 56t3 54.5v61h-35q-10 0 -73 1q-31 1 -53.5 1t-35.5 -1q-27 -1 -71 -4t-74 -11q-82 -20 -124 -68.5t-42 -103.5zM418 1130l180 302l129 -86l-207 -277z" />
<glyph unicode="&#xe2;" d="M100 242q0 82 54.5 155.5t160.5 112.5q55 20 133 29.5t125.5 10.5t145.5 1h31v35q0 111 -31 159q-55 90 -193 91q-168 0 -268 -105l-72 94q125 131 334 131q111 0 195 -39.5t131 -115.5q45 -76 45 -221v-580h-139v102q-154 -125 -336 -125q-141 0 -228.5 78t-87.5 187z M248 252q0 -66 54 -114t142 -48q82 0 145.5 35t100.5 76q31 31 45.5 65.5t17.5 56t3 54.5v61h-35q-10 0 -73 1q-31 1 -53.5 1t-35.5 -1q-27 -1 -71 -4t-74 -11q-82 -20 -124 -68.5t-42 -103.5zM289 1116l227 287h45l225 -289l-96 -72l-158 211l-165 -209z" />
<glyph unicode="&#xe3;" d="M100 242q0 82 54.5 155.5t160.5 112.5q55 20 133 29.5t125.5 10.5t145.5 1h31v35q0 111 -31 159q-55 90 -193 91q-168 0 -268 -105l-72 94q125 131 334 131q111 0 195 -39.5t131 -115.5q45 -76 45 -221v-580h-139v102q-154 -125 -336 -125q-141 0 -228.5 78t-87.5 187z M205 1206q113 178 231 178q80 0 164 -88q63 -66 102 -65q14 0 26.5 5t26 18.5t19.5 20.5t24 32l23 32l76 -82q-59 -74 -104 -109.5t-97 -35.5q-41 0 -79.5 24.5t-64.5 53.5t-58.5 53.5t-63.5 24.5q-37 0 -63.5 -28t-69.5 -99zM248 252q0 -66 54 -114t142 -48q82 0 145.5 35 t100.5 76q31 31 45.5 65.5t17.5 56t3 54.5v61h-35q-10 0 -73 1q-31 1 -53.5 1t-35.5 -1q-27 -1 -71 -4t-74 -11q-82 -20 -124 -68.5t-42 -103.5z" />
<glyph unicode="&#xe4;" d="M100 242q0 82 54.5 155.5t160.5 112.5q55 20 133 29.5t125.5 10.5t145.5 1h31v35q0 111 -31 159q-55 90 -193 91q-168 0 -268 -105l-72 94q125 131 334 131q111 0 195 -39.5t131 -115.5q45 -76 45 -221v-580h-139v102q-154 -125 -336 -125q-141 0 -228.5 78t-87.5 187z M248 252q0 -66 54 -114t142 -48q82 0 145.5 35t100.5 76q31 31 45.5 65.5t17.5 56t3 54.5v61h-35q-10 0 -73 1q-31 1 -53.5 1t-35.5 -1q-27 -1 -71 -4t-74 -11q-82 -20 -124 -68.5t-42 -103.5zM256 1257q0 43 30.5 74t73.5 31t73 -31t30 -74t-30 -72.5t-73 -29.5t-73.5 29.5 t-30.5 72.5zM623 1257q0 43 29.5 74t72.5 31t72.5 -31t29.5 -74t-29.5 -72.5t-72.5 -29.5t-72.5 29.5t-29.5 72.5z" />
<glyph unicode="&#xe5;" d="M100 242q0 82 54.5 155.5t160.5 112.5q55 20 133 29.5t125.5 10.5t145.5 1h31v35q0 111 -31 159q-55 90 -193 91q-168 0 -268 -105l-72 94q125 131 334 131q111 0 195 -39.5t131 -115.5q45 -76 45 -221v-580h-139v102q-154 -125 -336 -125q-141 0 -228.5 78t-87.5 187z M248 252q0 -66 54 -114t142 -48q82 0 145.5 35t100.5 76q31 31 45.5 65.5t17.5 56t3 54.5v61h-35q-10 0 -73 1q-31 1 -53.5 1t-35.5 -1q-27 -1 -71 -4t-74 -11q-82 -20 -124 -68.5t-42 -103.5zM338 1239q0 74 54 127t132 53t133.5 -53t55.5 -127t-55.5 -127t-133.5 -53 t-132 53t-54 127zM442 1241q0 -39 25 -66.5t59.5 -27.5t60 27.5t25.5 66.5t-25.5 66.5t-60 27.5t-59.5 -27.5t-25 -66.5z" />
<glyph unicode="&#xe6;" d="M20 254q0 84 48.5 158.5t140.5 117.5q76 35 197 39l47 2v54q0 68 -15 104q-18 51 -58 82t-89 31q-92 0 -156 -88l-72 90q90 113 238 112q74 0 134.5 -33.5t92.5 -93.5q35 59 93.5 93t121.5 34q59 0 114.5 -29.5t92.5 -88.5q25 -43 38 -98.5t14.5 -90.5t1.5 -100v-78 l-426 -16v-97q0 -86 22 -135q25 -57 77 -92t114 -35q94 0 149 76l72 -86q-90 -109 -234 -109q-78 0 -146.5 38t-109.5 104q-35 -66 -96 -104t-135 -38q-111 0 -191 81t-80 196zM152 262q0 -68 45 -114t108 -46q43 0 80 25t55 70q4 14 7.5 29.5t4.5 35t1 31.5v39v39v78 l-45 -3q-106 -4 -158 -28q-47 -25 -72.5 -68t-25.5 -88zM578 571l307 13v41q0 82 -19 127q-18 41 -51 65.5t-74 24.5q-74 0 -125 -78q-39 -57 -38 -158v-35z" />
<glyph unicode="&#xe7;" d="M115 467q0 211 132 349t339 138q111 0 202 -46t148 -128l-105 -121q-10 6 -10 23.5t-3 24t-12 17.5t-29.5 30.5t-47.5 35t-67.5 27.5t-86.5 12q-131 0 -220 -95t-89 -251q0 -164 92.5 -268t229.5 -104q147 0 248 114l86 -100q-121 -129 -299 -145l-11 -76l35 -2 q51 -4 80 -17q59 -29 59 -96q0 -59 -58 -105t-163 -46q-135 0 -243 75l51 86q90 -74 202 -73q53 0 74 15t21 35.5t-22.5 35t-74.5 14.5h-61l20 154q-182 16 -299.5 152t-117.5 335z" />
<glyph unicode="&#xe8;" d="M100 457q0 244 124 372.5t306 128.5q59 0 115.5 -17t110 -54t91.5 -103.5t54 -156.5q9 -56 9 -114q0 -33 -3 -67h-665q4 -98 36.5 -170.5t82 -108.5t98.5 -52.5t102 -16.5q147 0 242 105l82 -80q-121 -143 -336 -143q-199 0 -324 126t-125 351zM248 561h514q2 17 2 33 q0 94 -61 167q-71 85 -183 85q-41 0 -82 -14.5t-81 -45t-69.5 -89t-39.5 -136.5zM369 1346l129 86l180 -302l-103 -61z" />
<glyph unicode="&#xe9;" d="M100 457q0 244 124 372.5t306 128.5q59 0 115.5 -17t110 -54t91.5 -103.5t54 -156.5q9 -56 9 -114q0 -33 -3 -67h-665q4 -98 36.5 -170.5t82 -108.5t98.5 -52.5t102 -16.5q147 0 242 105l82 -80q-121 -143 -336 -143q-199 0 -324 126t-125 351zM248 561h514q2 17 2 33 q0 94 -61 167q-71 85 -183 85q-41 0 -82 -14.5t-81 -45t-69.5 -89t-39.5 -136.5zM418 1130l180 302l129 -86l-207 -277z" />
<glyph unicode="&#xea;" d="M100 457q0 244 124 372.5t306 128.5q59 0 115.5 -17t110 -54t91.5 -103.5t54 -156.5q9 -56 9 -114q0 -33 -3 -67h-665q4 -98 36.5 -170.5t82 -108.5t98.5 -52.5t102 -16.5q147 0 242 105l82 -80q-121 -143 -336 -143q-199 0 -324 126t-125 351zM248 561h514q2 17 2 33 q0 94 -61 167q-71 85 -183 85q-41 0 -82 -14.5t-81 -45t-69.5 -89t-39.5 -136.5zM274 1116l228 287h45l225 -289l-94 -72l-160 211l-166 -209z" />
<glyph unicode="&#xeb;" d="M100 457q0 244 124 372.5t306 128.5q59 0 115.5 -17t110 -54t91.5 -103.5t54 -156.5q9 -56 9 -114q0 -33 -3 -67h-665q4 -98 36.5 -170.5t82 -108.5t98.5 -52.5t102 -16.5q147 0 242 105l82 -80q-121 -143 -336 -143q-199 0 -324 126t-125 351zM233 1257q0 43 31 74 t73 31t72.5 -31t30.5 -74t-30.5 -72.5t-72.5 -29.5t-73 29.5t-31 72.5zM248 561h514q2 17 2 33q0 94 -61 167q-71 85 -183 85q-41 0 -82 -14.5t-81 -45t-69.5 -89t-39.5 -136.5zM600 1257q0 43 29.5 74t71.5 31t73 -31t31 -74t-31 -72.5t-73 -29.5t-71.5 29.5t-29.5 72.5z " />
<glyph unicode="&#xec;" d="M205 0v119h239v698h-227v119h375v-817h219v-119h-606zM264 1346l129 86l180 -302l-102 -61z" />
<glyph unicode="&#xed;" d="M205 0v119h239v698h-227v119h375v-817h219v-119h-606zM399 1130l181 302l129 -86l-207 -277z" />
<glyph unicode="&#xee;" d="M205 0v119h239v698h-227v119h375v-817h219v-119h-606zM231 1116l228 287h45l225 -289l-94 -72l-160 211l-166 -209z" />
<glyph unicode="&#xef;" d="M205 0v119h239v698h-227v119h375v-817h219v-119h-606zM209 1257q0 43 29.5 74t72.5 31t74 -31t31 -74t-31 -72.5t-74 -29.5t-72.5 29.5t-29.5 72.5zM573 1257q0 43 31 74t73 31t72.5 -31t30.5 -74t-30.5 -72.5t-72.5 -29.5t-73 29.5t-31 72.5z" />
<glyph unicode="&#xf0;" d="M82 457q0 207 127 353t301 146q145 0 246 -106q-63 158 -176 280l-263 -73l-36 98l213 57q-96 80 -209 131l166 33q96 -53 178 -127l221 60l35 -90l-174 -52q231 -262 231 -649q0 -219 -78 -350q-57 -92 -146 -142.5t-194 -50.5q-182 0 -312 137.5t-130 344.5zM240 475 q0 -170 84 -271.5t200 -101.5q45 0 90 19.5t87 59.5t67 116t25 178q0 100 -27 174t-70 111t-86 54t-88 17q-115 0 -198.5 -93t-83.5 -263z" />
<glyph unicode="&#xf1;" d="M139 936h152v-166q53 84 136 136t173 52q82 0 148.5 -44t101.5 -121q35 -76 35 -226v-567h-146v563q0 45 -2 72t-14 67.5t-35 67.5q-49 59 -127 59q-66 0 -128 -42t-97 -87q-45 -63 -45 -161v-539h-152v936zM174 1206q113 178 234 178q78 0 163 -88q61 -66 103 -65 q14 0 25.5 5t24.5 18l20 21q7 7 25 32l24 32l75 -82q-61 -74 -105 -109.5t-97 -35.5q-39 0 -78 24.5t-64.5 53.5t-59.5 53.5t-63 24.5q-37 0 -64.5 -28t-70.5 -99z" />
<glyph unicode="&#xf2;" d="M82 461q0 213 131 354t313 141q170 0 293 -131t123 -362q0 -223 -123 -355.5t-297 -132.5q-182 0 -311 138.5t-129 347.5zM238 473q0 -166 84 -268.5t200 -102.5q111 0 192 94.5t81 260.5q0 180 -84 277t-195 97q-115 0 -196.5 -97t-81.5 -261zM369 1346l129 86l180 -302 l-103 -61z" />
<glyph unicode="&#xf3;" d="M82 461q0 213 131 354t313 141q170 0 293 -131t123 -362q0 -223 -123 -355.5t-297 -132.5q-182 0 -311 138.5t-129 347.5zM238 473q0 -166 84 -268.5t200 -102.5q111 0 192 94.5t81 260.5q0 180 -84 277t-195 97q-115 0 -196.5 -97t-81.5 -261zM418 1130l180 302l129 -86 l-207 -277z" />
<glyph unicode="&#xf4;" d="M82 461q0 213 131 354t313 141q170 0 293 -131t123 -362q0 -223 -123 -355.5t-297 -132.5q-182 0 -311 138.5t-129 347.5zM238 473q0 -166 84 -268.5t200 -102.5q111 0 192 94.5t81 260.5q0 180 -84 277t-195 97q-115 0 -196.5 -97t-81.5 -261zM274 1116l228 287h45 l225 -289l-94 -72l-160 211l-166 -209z" />
<glyph unicode="&#xf5;" d="M82 461q0 213 131 354t313 141q170 0 293 -131t123 -362q0 -223 -123 -355.5t-297 -132.5q-182 0 -311 138.5t-129 347.5zM186 1206q111 178 232 178q80 0 164 -88q61 -66 102 -65q14 0 26.5 5t24.5 18l20 21q7 7 24 32l24 32l76 -82q-61 -74 -105.5 -109.5t-97.5 -35.5 q-39 0 -78 24.5t-64.5 53.5t-59.5 53.5t-62 24.5q-37 0 -63.5 -28t-72.5 -99zM238 473q0 -166 84 -268.5t200 -102.5q111 0 192 94.5t81 260.5q0 180 -84 277t-195 97q-115 0 -196.5 -97t-81.5 -261z" />
<glyph unicode="&#xf6;" d="M82 461q0 213 131 354t313 141q170 0 293 -131t123 -362q0 -223 -123 -355.5t-297 -132.5q-182 0 -311 138.5t-129 347.5zM229 1257q0 43 31 74t74 31t72.5 -31t29.5 -74t-29.5 -72.5t-72.5 -29.5t-74 29.5t-31 72.5zM238 473q0 -166 84 -268.5t200 -102.5 q111 0 192 94.5t81 260.5q0 180 -84 277t-195 97q-115 0 -196.5 -97t-81.5 -261zM596 1257q0 43 29.5 74t72.5 31t73 -31t30 -74t-30 -72.5t-73 -29.5t-72.5 29.5t-29.5 72.5z" />
<glyph unicode="&#xf7;" d="M145 575v138h738v-138h-738zM430 324.5q0 37.5 27.5 65.5t65.5 28t64.5 -28t26.5 -65.5t-26.5 -64.5t-64.5 -27t-65.5 27t-27.5 64.5zM432 955.5q0 37.5 26.5 65.5t64.5 28t64.5 -28t26.5 -65.5t-26.5 -64.5t-64.5 -27t-64.5 27t-26.5 64.5z" />
<glyph unicode="&#xf8;" d="M82 461q0 213 131 354t313 141q84 0 160 -34l76 141l108 -59l-79 -150q152 -137 151 -391q0 -223 -123 -355.5t-297 -132.5q-100 0 -190 45l-82 -151l-107 55l90 166q-151 144 -151 371zM238 473q0 -147 69 -248l316 580q-51 27 -107 26q-115 0 -196.5 -97t-81.5 -261z M397 137q57 -35 125 -35q111 0 192 94.5t81 260.5t-76 268z" />
<glyph unicode="&#xf9;" d="M127 414l2 522h147v-522q0 -137 35 -203q27 -53 75 -84t103 -31q66 0 124.5 40t91.5 100q37 68 36 184v516h150v-852q0 -51 10 -84h-156q-4 29 -4 72l2 71q-45 -78 -122.5 -122t-165.5 -44q-92 0 -171 50.5t-120 140.5q-37 84 -37 246zM369 1346l129 86l180 -302 l-103 -61z" />
<glyph unicode="&#xfa;" d="M127 414l2 522h147v-522q0 -137 35 -203q27 -53 75 -84t103 -31q66 0 124.5 40t91.5 100q37 68 36 184v516h150v-852q0 -51 10 -84h-156q-4 29 -4 72l2 71q-45 -78 -122.5 -122t-165.5 -44q-92 0 -171 50.5t-120 140.5q-37 84 -37 246zM418 1130l180 302l129 -86 l-207 -277z" />
<glyph unicode="&#xfb;" d="M127 414l2 522h147v-522q0 -137 35 -203q27 -53 75 -84t103 -31q66 0 124.5 40t91.5 100q37 68 36 184v516h150v-852q0 -51 10 -84h-156q-4 29 -4 72l2 71q-45 -78 -122.5 -122t-165.5 -44q-92 0 -171 50.5t-120 140.5q-37 84 -37 246zM274 1116l228 287h45l225 -289 l-94 -72l-160 211l-166 -209z" />
<glyph unicode="&#xfc;" d="M127 414l2 522h147v-522q0 -137 35 -203q27 -53 75 -84t103 -31q66 0 124.5 40t91.5 100q37 68 36 184v516h150v-852q0 -51 10 -84h-156q-4 29 -4 72l2 71q-45 -78 -122.5 -122t-165.5 -44q-92 0 -171 50.5t-120 140.5q-37 84 -37 246zM229 1257q0 43 31 74t74 31 t72.5 -31t29.5 -74t-29.5 -72.5t-72.5 -29.5t-74 29.5t-31 72.5zM596 1257q0 43 29.5 74t72.5 31t73 -31t30 -74t-30 -72.5t-73 -29.5t-72.5 29.5t-29.5 72.5z" />
<glyph unicode="&#xfd;" d="M45 -276l78 131q6 -6 10 -19.5t6 -13.5q4 -8 14.5 -19.5t37 -25t57.5 -13.5q74 0 131 62q33 35 65 108l29 70l-379 932h182q2 -10 -3 -24.5t-5 -20.5q0 -7 4 -17l275 -688l178 502q51 145 70 248h153q-33 -109 -92 -270l-293 -772q-37 -100 -80 -148q-90 -102 -235 -102 q-121 0 -203 80zM418 1130l180 302l129 -86l-207 -277z" />
<glyph unicode="&#xfe;" d="M123 -342v1704h164q0 -14 -7.5 -32.5t-7.5 -35.5v-501q47 76 126 119.5t169 43.5q72 0 138.5 -28.5t121 -85t88 -150.5t33.5 -213q0 -125 -34.5 -223t-91 -158.5t-125 -91.5t-142.5 -31q-86 0 -159.5 39t-121.5 109v-465h-151zM272 510q0 -86 1 -122t7.5 -80t18.5 -72 q27 -61 85 -95.5t128 -34.5q31 0 63.5 6.5t73.5 29t72 58.5t52.5 100.5t21.5 148.5q0 96 -22.5 168.5t-53.5 112.5t-72 63.5t-71.5 30.5t-61.5 7q-72 0 -131 -36.5t-86 -100.5q-25 -57 -25 -184z" />
<glyph unicode="&#xff;" d="M45 -276l78 131q6 -6 10 -19.5t6 -13.5q4 -8 14.5 -19.5t37 -25t57.5 -13.5q74 0 131 62q33 35 65 108l29 70l-379 932h182q2 -10 -3 -24.5t-5 -20.5q0 -7 4 -17l275 -688l178 502q51 145 70 248h153q-33 -109 -92 -270l-293 -772q-37 -100 -80 -148q-90 -102 -235 -102 q-121 0 -203 80zM229 1257q0 43 31 74t74 31t72.5 -31t29.5 -74t-29.5 -72.5t-72.5 -29.5t-74 29.5t-31 72.5zM596 1257q0 43 29.5 74t72.5 31t73 -31t30 -74t-30 -72.5t-73 -29.5t-72.5 29.5t-29.5 72.5z" />
<glyph unicode="&#x152;" d="M18 639q0 289 70 448q47 109 117.5 158t144.5 49q98 0 168 -75v59h473v-127h-346v-420h293v-131h-293v-473h342v-127h-471v63q-66 -78 -168 -77q-84 0 -163 63.5t-119 196.5q-48 151 -48 393zM150 664q0 -272 57 -412q57 -141 160 -141q53 0 94 43t55 110v729 q-23 70 -63.5 126.5t-102.5 56.5q-49 0 -91 -41t-69 -121q-40 -121 -40 -350z" />
<glyph unicode="&#x153;" d="M12 483q0 193 58 301q45 84 114.5 127t145.5 43q123 0 192 -94q80 94 207 94q78 0 145.5 -44t100.5 -132q8 -18 13 -38.5t8 -44t5.5 -41t2.5 -47.5v-42v-47v-43v-22h-467q2 -178 30 -242q25 -57 76 -86t113 -29q115 0 184 78l72 -88q-106 -111 -260 -111q-133 0 -234 84 q-92 -82 -203 -82q-70 0 -136 40t-109 126q-58 117 -58 340zM135 504q0 -158 31 -252q25 -78 70 -114t98 -36q41 0 71.5 21.5t30.5 58.5q0 6 -7 46t-13 109t-6 146q0 68 5 125.5t9 91t4 41.5q0 39 -28.5 64.5t-69.5 25.5q-45 0 -88 -30.5t-70 -87.5q-37 -80 -37 -209z M539 569h344v19q0 127 -33 178q-45 76 -137 76q-111 0 -152 -111q-23 -59 -23 -147q1 -7 1 -15z" />
<glyph unicode="&#x178;" d="M57 1278h164l314 -621l282 619h152l-363 -772v-504h-155v504zM221 1511q0 43 30 74t73 31t73.5 -31t30.5 -74t-30.5 -72.5t-73.5 -29.5t-73 29.5t-30 72.5zM588 1511q0 43 29.5 74t71.5 31t73 -31t31 -74t-31 -72.5t-73 -29.5t-71.5 29.5t-29.5 72.5z" />
<glyph unicode="&#x2c6;" d="M274 1116l228 287h45l225 -289l-94 -72l-160 211l-166 -209z" />
<glyph unicode="&#x2dc;" d="M186 1206q111 178 232 178q80 0 164 -88q61 -66 102 -65q14 0 26.5 5t24.5 18l20 21q7 7 24 32l24 32l76 -82q-61 -74 -105.5 -109.5t-97.5 -35.5q-39 0 -78 24.5t-64.5 53.5t-59.5 53.5t-62 24.5q-37 0 -63.5 -28t-72.5 -99z" />
<glyph unicode="&#x2013;" d="M145 575v138h738v-138h-738z" />
<glyph unicode="&#x2014;" horiz-adv-x="2048" d="M145 575v138h1762v-138h-1762z" />
<glyph unicode="&#x2018;" d="M373 922q0 164 217 385l72 -64q-57 -51 -103 -127q-31 -49 -31 -84q0 -41 47 -74q57 -37 58 -90q0 -47 -34 -81.5t-83 -34.5q-57 0 -100 47t-43 123z" />
<glyph unicode="&#x2019;" d="M338 813q57 53 102 127q31 49 31 86q0 41 -47 72q-57 39 -57 92q0 47 33.5 82t82.5 35q57 0 100.5 -47.5t43.5 -122.5q0 -164 -219 -385z" />
<glyph unicode="&#x201a;" d="M338 -283q57 53 102 127q31 49 31 86q0 41 -47 72q-57 39 -57 92q0 47 33.5 82t82.5 35q57 0 100.5 -47t43.5 -123q0 -164 -219 -385z" />
<glyph unicode="&#x201c;" d="M162 922q0 164 217 385l70 -64q-57 -51 -103 -127q-31 -49 -31 -84q0 -41 50 -74q57 -37 57 -90q0 -47 -35 -81.5t-84 -34.5q-57 0 -99 47t-42 123zM586 922q0 164 217 385l69 -64q-57 -51 -102 -127q-31 -49 -31 -84q0 -41 49 -74q57 -37 58 -90q0 -47 -35 -81.5 t-84 -34.5q-57 0 -99 47t-42 123z" />
<glyph unicode="&#x201d;" d="M125 813q59 53 104 127q29 49 29 86q0 41 -47 72q-57 39 -57 92q0 47 33.5 82t84.5 35q57 0 99.5 -47.5t42.5 -122.5q0 -164 -217 -385zM549 813q59 53 104 127q29 49 29 86q0 41 -47 72q-57 39 -57 92q0 47 33.5 82t84.5 35q57 0 99.5 -47.5t42.5 -122.5 q0 -164 -217 -385z" />
<glyph unicode="&#x201e;" d="M125 -283q59 53 104 127q29 49 29 86q0 41 -47 72q-57 39 -57 92q0 47 33.5 82t84.5 35q57 0 99.5 -47t42.5 -123q0 -164 -217 -385zM549 -283q59 53 104 127q29 49 29 86q0 41 -47 72q-57 39 -57 92q0 47 33.5 82t84.5 35q57 0 99.5 -47t42.5 -123q0 -164 -217 -385z " />
<glyph unicode="&#x2022;" d="M350 607.5q0 70.5 51.5 120.5t123 50t122.5 -50t51 -120.5t-51 -121t-122.5 -50.5t-123 50.5t-51.5 121z" />
<glyph unicode="&#x2026;" d="M14 94q0 49 35 84t86 35t86 -35t35 -84t-35 -83t-86 -34t-86 34t-35 83zM367 94q0 49 35.5 84t86 35t86 -35t35.5 -84t-35.5 -83t-86 -34t-86 34t-35.5 83zM721 94q0 49 36 84t86 35t85 -35t35 -84t-35 -83t-85 -34t-86 34t-36 83z" />
<glyph unicode="&#x2039;" d="M297 471v47l311 301l80 -84l-248 -241l262 -287l-81 -82z" />
<glyph unicode="&#x203a;" d="M297 207l262 287l-248 241l80 84l311 -301v-47l-323 -346z" />
<glyph unicode="&#x20ac;" d="M68 446l26 119h82v33q0 70 4 131h-112l26 119h105q25 117 73 201q72 127 180.5 182t221.5 55q168 0 276 -110l-51 -140q-8 6 -10 20.5t-6 20.5q-8 10 -26.5 26.5t-74 41t-116.5 24.5q-104 0 -196.5 -68.5t-133.5 -211.5q-6 -20 -10 -41h505l-45 -119h-479q-4 -55 -4 -121 v-43h422l-47 -119h-363q23 -125 84 -208q100 -137 271 -138q127 0 219 84l59 -102q-121 -104 -286 -105q-55 0 -108.5 11.5t-115 45.5t-110.5 84t-88 135t-54 193h-118z" />
<glyph unicode="&#x2122;" d="M37 1219v81h452v-81h-184v-564h-92v564h-176zM549 655v645h72l147 -296l76 147l78 149h67v-645h-86v441l-63 -113l-60 -109l-32 3l-113 219v-441h-86z" />
<glyph unicode="&#xe000;" horiz-adv-x="935" d="M0 935h935v-935h-935v935z" />
<glyph unicode="&#xfb01;" horiz-adv-x="2048" d="M129 764v117h203v92q0 156 51 237q49 80 134 122t185 42q180 0 287 -129l-67 -135q-4 0 -9.5 4t-7.5 12q0 18 -4 25q-33 47 -87 76.5t-118 29.5q-131 0 -188 -102q-35 -61 -35 -203v-71h307v-117h-307v-764h-141v764h-203zM1229 0v119h239v698h-227v119h375v-817h219 v-119h-606zM1440 1238q0 44 30.5 74.5t74.5 30.5t75 -30.5t31 -74.5t-31 -74.5t-75 -30.5t-74.5 30.5t-30.5 74.5z" />
<glyph unicode="&#xfb02;" horiz-adv-x="2048" d="M129 764v117h203v92q0 156 51 237q49 80 134 122t185 42q180 0 287 -129l-67 -135q-4 0 -9.5 4t-7.5 12q0 18 -4 25q-33 47 -87 76.5t-118 29.5q-131 0 -188 -102q-35 -61 -35 -203v-71h307v-117h-307v-764h-141v764h-203zM1186 0v119h276v1124h-264v119h414v-1243h274 v-119h-700z" />
<glyph unicode="&#xfb03;" horiz-adv-x="3072" d="M129 764v117h203v92q0 156 51 237q49 80 134 122t185 42q180 0 287 -129l-67 -135q-4 0 -9.5 4t-7.5 12q0 18 -4 25q-33 47 -87 76.5t-118 29.5q-131 0 -188 -102q-35 -61 -35 -203v-71h307v-117h-307v-764h-141v764h-203zM1153 764v117h203v92q0 156 51 237 q49 80 134 122t185 42q180 0 287 -129l-67 -135q-4 0 -9.5 4t-7.5 12q0 18 -4 25q-33 47 -87 76.5t-118 29.5q-131 0 -188 -102q-35 -61 -35 -203v-71h307v-117h-307v-764h-141v764h-203zM2253 0v119h239v698h-227v119h375v-817h219v-119h-606zM2464 1238q0 44 30.5 74.5 t74.5 30.5t75 -30.5t31 -74.5t-31 -74.5t-75 -30.5t-74.5 30.5t-30.5 74.5z" />
<glyph unicode="&#xfb04;" horiz-adv-x="3072" d="M129 764v117h203v92q0 156 51 237q49 80 134 122t185 42q180 0 287 -129l-67 -135q-4 0 -9.5 4t-7.5 12q0 18 -4 25q-33 47 -87 76.5t-118 29.5q-131 0 -188 -102q-35 -61 -35 -203v-71h307v-117h-307v-764h-141v764h-203zM1153 764v117h203v92q0 156 51 237 q49 80 134 122t185 42q180 0 287 -129l-67 -135q-4 0 -9.5 4t-7.5 12q0 18 -4 25q-33 47 -87 76.5t-118 29.5q-131 0 -188 -102q-35 -61 -35 -203v-71h307v-117h-307v-764h-141v764h-203zM2210 0v119h276v1124h-264v119h414v-1243h274v-119h-700z" />
</font>
</defs>
</svg>
